Pokaż wyniki od 1 do 2 z 2

Wątek: Szybcy i wściekli - Furious (2001 - 2013)

  
  1. #1
    Użytkownik Array
    Dołączył
    Jun 2015
    Posty
    736
    Podziękował/a
    0
    Otrzymał/a podziękowań 11
    Siła reputacji
    77

    Domyślnie Szybcy i wściekli - Furious (2001 - 2015)

    Szybcy i wściekli 7 / Furious 7 (2015) Extended Cut Multi.1080p.BluRay.x264.DTS-HDMA.DTS.AC3-DX / Lektor i Napisy PL

    Spoiler:


    reżyseria: James Wan
    scenariusz: Chris Morgan
    gatunek: Akcja
    produkcja: Japonia USA
    premiera: 10 kwietnia 2015 (Polska) 16 marca 2015 (świat)


    Toretto i jego ekipa mierzą się z pałającym żądzą krwi najemnikiem Deckardem Shawem.

    Moc przyjaźni pozwoli oszukać śmierć, siła miłości pokona amnezję, a niestrudzony w promowaniu konserwatywnych wartości Toretto podkreśli przewagę familijnego
    ciepełka nad hedonizmem i rozpustą ("Każdy liczy w życiu na dreszczyk emocji, ale najważniejsza jest rodzina" – powie z namaszczeniem). Fetyszystyczne pocztówki
    z dzikich imprez niby kłócą się z tym przesłaniem, lecz ekranowa chemia między bohaterami sprawia, że trudno zarzucać twórcom nieszczerość.


    General
    Spoiler:
    Format : Matroska
    File size : 22.3 GiB
    Duration : 2h 19mn
    Overall bit rate : 22.8 Mbps
    Video #1
    ID : 1
    Format : AVC
    Format/Info : Advanced Video Codec
    Format profile : [email protected]
    Codec ID : V_MPEG4/ISO/AVC
    Duration : 2h 19mn
    Nominal bit rate : 16.4 Mbps
    Width : 1 920 pixels
    Height : 800 pixels
    Display aspect ratio : 2.40:1
    Frame rate : 23.976 fps
    Resolution : 24 bits
    Audio #2
    ID : 2
    Format : DTS
    Format/Info : Digital Theater Systems
    Format profile : MA
    Codec ID : A_DTS
    Duration : 2h 19mn
    Bit rate mode : Variable
    Channel(s) : 8 channels
    Channel positions : Front: L C R, Surround: L C C R, LFE
    Sampling rate : 48.0 KHz
    Resolution : 24 bits
    Title : English DTS-HD MA 7.1 - 4924 Kbps
    Language : English
    Audio #3
    ID : 3
    Format : DTS
    Format/Info : Digital Theater Systems
    Codec ID : A_DTS
    Duration : 2h 19mn
    Bit rate mode : Constant
    Bit rate : 1 510 Kbps
    Channel(s) : 6 channels
    Channel positions : Front: L C R, Surround: L R, LFE
    Sampling rate : 48.0 KHz
    Resolution : 24 bits
    Stream size : 1.48 GiB (7%)
    Title : English DTS - 1510 Kbps
    Language : English
    Audio #4
    ID : 4
    Format : AC-3
    Format/Info : Audio Coding 3
    Codec ID : A_AC3
    Duration : 2h 19mn
    Bit rate mode : Constant
    Bit rate : 448 Kbps
    Channel(s) : 6 channels
    Channel positions : Front: L C R, Surround: L R, LFE
    Sampling rate : 48.0 KHz
    Stream size : 448 MiB (2%)
    Title : Polish AC3 5.1 448 Kbps
    Language : Polish
    Text #5
    ID : 5
    Format : SSA
    Codec ID : S_TEXT/SSA
    Codec ID/Info : Sub Station Alpha
    Title : Polish SSA
    Language : Polish
    Text #6
    ID : 6
    Format : UTF-8
    Codec ID : S_TEXT/UTF8
    Codec ID/Info : UTF-8 Plain Text
    Title : Polish SRT
    Language : Polish



    Spoiler:




    Subtitles: PL (SSA , SRT) wmuxowane i ososbno
    Source A/V : BD

    Kompresja RAR + 10% Danych Naprawczych
    Brak Hasła
    Plki po 1,2 Gb
    Pliki można pobierać na przemian
    Rapidu - FileShark :


    Linki / Download / Mirror / Pobierz:
    Linki widoczne tylko dla zarejestrowanych użytkowników.
    Jedne konto wiele hostingów - BEZ LIMITÓW! -FileFox-

    Szybcy i wściekli 6 / Furious 6 (2013)Extended .MULTi.1080p.BluRay.x264.DTS.AC3-DX Lektor i Napisy PL

    60 FPS


    Spoiler:


    English DTS
    Polish DTS / AC3

    reżyseria: Justin Lin
    scenariusz: Chris Morgan
    gatunek: Akcja
    produkcja: USA
    premiera: 24 maja 2013 (Polska) 7 maja 2013 (świat)



    Grupa świetnie wyszkolonych kierowców porywa transport wojskowej broni. W zamian za całkowitą abolicję Dom
    z przyjaciółmi zgadzają się pomóc agentowi Hobbsowi przy powstrzymaniu najemników.


    General :
    Spoiler:

    Format : Matroska
    File size : 15.0 GiB
    Duration : 2h 11mn
    Overall bit rate : 16.4 Mbps
    Video #1
    ID : 1
    Format : AVC
    Format/Info : Advanced Video Codec
    Format profile : [email protected]
    Codec ID : V_MPEG4/ISO/AVC
    Duration : 2h 10mn
    Bit rate : 13.2 Mbps
    Width : 1 920 pixels
    Height : 816 pixels
    Display aspect ratio : 2.35:1
    Frame rate : 59.940 fps
    Resolution : 24 bits
    Colorimetry : 4:2:0
    Scan type : Progressive
    Bits/(Pixel*Frame) : 0.140
    Stream size : 12.1 GiB (80%)
    Writing library : x264 core 133 r2334 a3ac64b
    Audio #2
    ID : 2
    Format : DTS
    Format/Info : Digital Theater Systems
    Codec ID : A_DTS
    Duration : 2h 11mn
    Bit rate mode : Constant
    Bit rate : 1 510 Kbps
    Channel(s) : 6 channels
    Channel positions : Front: L C R, Surround: L R, LFE
    Sampling rate : 48.0 KHz
    Resolution : 24 bits
    Stream size : 1.38 GiB (9%)
    Title : English DTS 5.1
    Audio #3
    ID : 3
    Format : DTS
    Format/Info : Digital Theater Systems
    Codec ID : A_DTS
    Duration : 2h 11mn
    Bit rate mode : Constant
    Bit rate : 755 Kbps
    Channel(s) : 6 channels
    Channel positions : Front: L C R, Surround: L R, LFE
    Sampling rate : 48.0 KHz
    Resolution : 24 bits
    Stream size : 707 MiB (5%)
    Title : Polish DTS 5.1
    Language : Polish
    Audio #4
    ID : 4
    Format : AC-3
    Format/Info : Audio Coding 3
    Codec ID : A_AC3
    Duration : 2h 11mn
    Bit rate mode : Constant
    Bit rate : 640 Kbps
    Channel(s) : 6 channels
    Channel positions : Front: L C R, Surround: L R, LFE
    Sampling rate : 48.0 KHz
    Stream size : 600 MiB (4%)
    Title : Polish AC3 5.1
    Language : Polish
    Text #5
    ID : 5
    Format : SSA
    Codec ID : S_TEXT/SSA
    Codec ID/Info : Sub Station Alpha
    Title : Polish SSA
    Language : Polish
    Text #6
    ID : 6
    Format : UTF-8
    Codec ID : S_TEXT/UTF8
    Codec ID/Info : UTF-8 Plain Text
    Title : Polish SRT
    Language : Polish



    Spoiler:




    Subtitles: PL (SSA/SRT) wmuxowane i ososbno
    Source A/V : BD

    Kompresja RAR + 10% Danych Naprawczych
    Brak Hasła
    Plki po 1,2Gb
    Pliki można pobierać na przemian
    Rapidu - FileShark :



    Linki / Download / Mirror / Pobierz:
    Linki widoczne tylko dla zarejestrowanych użytkowników.
    Jedne konto wiele hostingów - BEZ LIMITÓW! -FileFox-

    Szybcy i wściekli 5 / Fast Five (2011) MULTi.1080p.BluRay.x264.DTS.AC3-DX Lektor i Napisy PL

    60 FPS


    Spoiler:


    reżyseria: Justin Lin
    scenariusz: Chris Morgan
    gatunek: Akcja
    produkcja: USA
    premiera: 6 maja 2011 (Polska) 15 kwietnia 2011 (świat)


    Grupa kierowców naraża się niebezpiecznemu gangsterowi, organizuje ryzykowny napad
    i musi wymknąć się ścigającemu ich nieustępliwemu agentowi.


    General :
    Spoiler:
    Format : Matroska
    File size : 15.8 GiB
    Duration : 2h 10mn
    Overall bit rate : 17.3 Mbps
    Video #1
    ID : 1
    Format : AVC
    Format/Info : Advanced Video Codec
    Format profile : [email protected]
    Codec ID : V_MPEG4/ISO/AVC
    Duration : 2h 10mn
    Bit rate : 15.0 Mbps
    Width : 1 920 pixels
    Height : 816 pixels
    Display aspect ratio : 2.35:1
    Frame rate : 59.940 fps
    Resolution : 24 bits
    Audio #2
    ID : 2
    Format : DTS
    Format/Info : Digital Theater Systems
    Codec ID : A_DTS
    Duration : 2h 10mn
    Bit rate mode : Constant
    Bit rate : 1 510 Kbps
    Channel(s) : 6 channels
    Channel positions : Front: L C R, Surround: L R, LFE
    Sampling rate : 48.0 KHz
    Resolution : 24 bits
    Stream size : 1.37 GiB (9%)
    Title : English DTS 5.1
    Audio #3
    ID : 3
    Format : AC-3
    Format/Info : Audio Coding 3
    Codec ID : A_AC3
    Duration : 2h 10mn
    Bit rate mode : Constant
    Bit rate : 448 Kbps
    Channel(s) : 6 channels
    Channel positions : Front: L C R, Surround: L R, LFE
    Sampling rate : 48.0 KHz
    Stream size : 418 MiB (3%)
    Title : Polish AC3 5.1
    Language : Polish
    Text #4
    ID : 4
    Format : SSA
    Codec ID : S_TEXT/SSA
    Codec ID/Info : Sub Station Alpha
    Title : Polish SSA
    Language : Polish
    Text #5
    ID : 5
    Format : UTF-8
    Codec ID : S_TEXT/UTF8
    Codec ID/Info : UTF-8 Plain Text
    Title : Polish SRT
    Language : Polish



    Spoiler:



    Subtitles: PL (SSA , SRT) wmuxowane i ososbno
    Source A/V : BD

    Kompresja RAR + 10% Danych Naprawczych
    Brak Hasła
    Plki po 1,2Gb
    Pliki można pobierać na przemian
    Rapidu - FileShark :



    Linki / Download / Mirror / Pobierz:
    Linki widoczne tylko dla zarejestrowanych użytkowników.
    Jedne konto wiele hostingów - BEZ LIMITÓW! -FileFox-

    Szybko i wściekle / Fast & Furious (2009) MULTi.1080p.BluRay.x264.DTS.AC3-DX Lektor i Napisy PL

    60 FPS


    Spoiler:


    reżyseria: Justin Lin
    scenariusz: Chris Morgan
    gatunek: Akcja
    produkcja: USA
    premiera: 3 kwietnia 2009 (Polska) 12 marca 2009 (świat)

    Przestępca oraz tropiący go agent łączą swoje siły i przenikają
    do narkotykowego gangu, by dopaść jego przywódcę.


    General :
    Spoiler:

    Format : Matroska
    File size : 11.8 GiB
    Duration : 1h 46mn
    Overall bit rate : 15.9 Mbps
    Video #1
    ID : 1
    Format : AVC
    Format/Info : Advanced Video Codec
    Format profile : [email protected]
    Codec ID : V_MPEG4/ISO/AVC
    Duration : 1h 46mn
    Bit rate : 13.6 Mbps
    Width : 1 920 pixels
    Height : 800 pixels
    Display aspect ratio : 2.40:1
    Frame rate : 59.940 fps
    Resolution : 24 bits
    Audio #2
    ID : 2
    Format : DTS
    Format/Info : Digital Theater Systems
    Codec ID : A_DTS
    Duration : 1h 46mn
    Bit rate mode : Constant
    Bit rate : 1 510 Kbps
    Channel(s) : 6 channels
    Channel positions : Front: L C R, Surround: L R, LFE
    Sampling rate : 48.0 KHz
    Resolution : 24 bits
    Video delay : 11ms
    Stream size : 1.13 GiB (10%)
    Title : English DTS 5.1
    Audio #3
    ID : 3
    Format : AC-3
    Format/Info : Audio Coding 3
    Codec ID : A_AC3
    Duration : 1h 46mn
    Bit rate mode : Constant
    Bit rate : 448 Kbps
    Channel(s) : 6 channels
    Channel positions : Front: L C R, Surround: L R, LFE
    Sampling rate : 48.0 KHz
    Stream size : 342 MiB (3%)
    Title : Polish AC3 5.1
    Language : Polish
    Text #4
    ID : 4
    Format : SSA
    Codec ID : S_TEXT/SSA
    Codec ID/Info : Sub Station Alpha
    Title : Polish SSA
    Language : Polish
    Text #5
    ID : 5
    Format : UTF-8
    Codec ID : S_TEXT/UTF8
    Codec ID/Info : UTF-8 Plain Text
    Title : Polish SRT
    Language : Polish



    Spoiler:




    Subtitles: PL (SSA/SRT) wmuxowane i ososbno
    Source A/V : BD

    Kompresja RAR + 10% Danych Naprawczych
    Brak Hasła
    Plki po 1,2Gb
    Pliki można pobierać na przemian

    Rapidu - FileShark :



    Linki / Download / Mirror / Pobierz:
    Linki widoczne tylko dla zarejestrowanych użytkowników.
    Jedne konto wiele hostingów - BEZ LIMITÓW! -FileFox-
    Ostatnio edytowane przez Demonxx ; 16-01-2016 o 23:58

  2. #2
    Użytkownik Array
    Dołączył
    Jun 2015
    Posty
    736
    Podziękował/a
    0
    Otrzymał/a podziękowań 11
    Siła reputacji
    77

    Domyślnie

    Szybcy i wściekli Tokio Drift / The Fast and the Furious Tokyo Drift (2006) MULTi.1080p.BluRay.x264.DTS.AC3-DX Lektor i Napisy PL

    60 FPS


    Spoiler:


    reżyseria: Justin Lin
    scenariusz: Chris MorganAlfredo BotelloKario Salem
    gatunek: Akcja
    produkcja: Niemcy USA
    premiera: 11 sierpnia 2006 (Polska) 4 czerwca 2006 (świat)

    Pasjonat nielegalnych wyścigów samochodowych ucieka przed więzieniem do Tokio.
    Ale tutaj też organizowane są niebezpieczne rajdy.


    General :
    Spoiler:

    Format : Matroska
    File size : 11.5 GiB
    Duration : 1h 44mn
    Overall bit rate : 15.8 Mbps
    Video #1
    ID : 1
    Format : AVC
    Format/Info : Advanced Video Codec
    Format profile : [email protected]
    Codec ID : V_MPEG4/ISO/AVC
    Duration : 1h 44mn
    Bit rate : 13.6 Mbps
    Width : 1 920 pixels
    Height : 816 pixels
    Display aspect ratio : 2.35:1
    Frame rate : 59.940 fps
    Resolution : 24 bits
    Audio #2
    ID : 2
    Format : DTS
    Format/Info : Digital Theater Systems
    Codec ID : A_DTS
    Duration : 1h 44mn
    Bit rate mode : Constant
    Bit rate : 1 510 Kbps
    Channel(s) : 6 channels
    Channel positions : Front: L C R, Surround: L R, LFE
    Sampling rate : 48.0 KHz
    Resolution : 24 bits
    Video delay : 11ms
    Stream size : 1.10 GiB (10%)
    Title : English DTS 5.1
    Audio #3
    ID : 3
    Format : AC-3
    Format/Info : Audio Coding 3
    Codec ID : A_AC3
    Duration : 1h 44mn
    Bit rate mode : Constant
    Bit rate : 448 Kbps
    Channel(s) : 6 channels
    Channel positions : Front: L C R, Surround: L R, LFE
    Sampling rate : 48.0 KHz
    Stream size : 334 MiB (3%)
    Title : Polish AC3 5.1
    Language : Polish
    Text #4
    ID : 4
    Format : SSA
    Codec ID : S_TEXT/SSA
    Codec ID/Info : Sub Station Alpha
    Title : Polish SSA
    Language : Polish
    Text #5
    ID : 5
    Format : UTF-8
    Codec ID : S_TEXT/UTF8
    Codec ID/Info : UTF-8 Plain Text
    Title : Polish SRT
    Language : Polish



    Spoiler:




    Subtitles: PL (SSA/SRT) wmuxowane i ososbno
    Source A/V : BD

    Kompresja RAR + 10% Danych Naprawczych
    Brak Hasła
    Plki po 1,2Gb
    Pliki można pobierać na przemian
    Rapidu - FileShark :



    Linki / Download / Mirror / Pobierz:
    Linki widoczne tylko dla zarejestrowanych użytkowników.
    Jedne konto wiele hostingów - BEZ LIMITÓW! -FileFox-

    Za szybcy za wściekli / 2 Fast 2 Furious (2003) MULTi.1080p.BluRay.x264.DTS.AC3-DX Lektor i Napisy PL

    60 FPS


    Spoiler:


    reżyseria: John Singleton
    scenariusz: Michael BrandtDerek Haas
    gatunek: Akcja
    produkcja: Niemcy USA
    premiera: 20 czerwca 2003 (Polska) 3 czerwca 2003 (świat)

    Jedyną szansą na schwytanie piorącego brudne pieniądze biznesmena jest infiltracja środowiska
    nielegalnych wyścigów samochodowych. Zadania podejmuje się były policjant.


    General :
    Spoiler:

    Format : Matroska
    File size : 14.5 GiB
    Duration : 1h 47mn
    Overall bit rate : 19.3 Mbps
    Video #1
    ID : 1
    Format : AVC
    Format/Info : Advanced Video Codec
    Format profile : [email protected]
    Codec ID : V_MPEG4/ISO/AVC
    Duration : 1h 47mn
    Bit rate : 16.9 Mbps
    Width : 1 920 pixels
    Height : 816 pixels
    Display aspect ratio : 2.35:1
    Frame rate : 59.940 fps
    Resolution : 24 bits
    Audio #2
    ID : 2
    Format : DTS
    Format/Info : Digital Theater Systems
    Codec ID : A_DTS
    Duration : 1h 47mn
    Bit rate mode : Constant
    Bit rate : 1 510 Kbps
    Channel(s) : 6 channels
    Channel positions : Front: L C R, Surround: L R, LFE
    Sampling rate : 48.0 KHz
    Resolution : 24 bits
    Video delay : 1s 11ms
    Stream size : 1.14 GiB (8%)
    Title : English DTS 5.1
    Audio #3
    ID : 3
    Format : AC-3
    Format/Info : Audio Coding 3
    Codec ID : A_AC3
    Duration : 1h 47mn
    Bit rate mode : Constant
    Bit rate : 448 Kbps
    Channel(s) : 6 channels
    Channel positions : Front: L C R, Surround: L R, LFE
    Sampling rate : 48.0 KHz
    Video delay : 1s 24ms
    Stream size : 345 MiB (2%)
    Title : Polish AC3 5.1
    Language : Polish
    Text #4
    ID : 4
    Format : SSA
    Codec ID : S_TEXT/SSA
    Codec ID/Info : Sub Station Alpha
    Title : Polish SSA
    Language : Polish
    Text #5
    ID : 5
    Format : UTF-8
    Codec ID : S_TEXT/UTF8
    Codec ID/Info : UTF-8 Plain Text
    Title : Polish SRT
    Language : Polish



    Spoiler:




    Subtitles: PL (SSA/SRT) wmuxowane i ososbno
    Source A/V : BD

    Kompresja RAR + 10% Danych Naprawczych
    Brak Hasła
    Plki po 1,2Gb
    Pliki można pobierać na przemian

    Rapidu - FileShark :



    Linki / Download / Mirror / Pobierz:
    Linki widoczne tylko dla zarejestrowanych użytkowników.
    Jedne konto wiele hostingów - BEZ LIMITÓW! -FileFox-


    Szybcy i wściekli / The Fast and the Furious (2001) MULTi.1080p.BluRay.x264.DTS.AC3-DX Lektor i Napisy PL

    60 FPS


    Spoiler:


    reżyseria: Rob Cohen
    scenariusz: Gary Scott Thompson David AyerErik Bergquist
    gatunek: Akcja
    produkcja: Niemcy USA
    premiera: 21 września 2001 (Polska) 18 czerwca 2001 (świat)

    Policjant przenika do grupy organizującej nielegalne wyścigi samochodowe.
    Sytuacja komplikuje się, gdy poznaje bliżej siostrę lidera przestępców.


    General :
    Spoiler:

    Format : Matroska
    File size : 11.2 GiB
    Duration : 1h 46mn
    Overall bit rate : 15.0 Mbps
    Video #1
    ID : 1
    Format : AVC
    Format/Info : Advanced Video Codec
    Format profile : [email protected]
    Codec ID : V_MPEG4/ISO/AVC
    Duration : 1h 46mn
    Bit rate : 12.7 Mbps
    Width : 1 920 pixels
    Height : 816 pixels
    Display aspect ratio : 2.35:1
    Frame rate : 59.940 fps
    Resolution : 24 bits
    Audio #2
    ID : 2
    Format : DTS
    Format/Info : Digital Theater Systems
    Codec ID : A_DTS
    Duration : 1h 46mn
    Bit rate mode : Constant
    Bit rate : 1 510 Kbps
    Channel(s) : 6 channels
    Channel positions : Front: L C R, Surround: L R, LFE
    Sampling rate : 48.0 KHz
    Resolution : 24 bits
    Video delay : 11ms
    Stream size : 1.13 GiB (10%)
    Title : English DTS 5.1
    Audio #3
    ID : 3
    Format : AC-3
    Format/Info : Audio Coding 3
    Codec ID : A_AC3
    Duration : 1h 46mn
    Bit rate mode : Constant
    Bit rate : 448 Kbps
    Channel(s) : 6 channels
    Channel positions : Front: L C R, Surround: L R, LFE
    Sampling rate : 48.0 KHz
    Stream size : 343 MiB (3%)
    Title : Polish AC3 5.1
    Language : Polish
    Text #4
    ID : 4
    Format : SSA
    Codec ID : S_TEXT/SSA
    Codec ID/Info : Sub Station Alpha
    Title : Polish SSA
    Language : Polish
    Text #5
    ID : 5
    Format : UTF-8
    Codec ID : S_TEXT/UTF8
    Codec ID/Info : UTF-8 Plain Text
    Title : Polish SRT
    Language : Polish



    Spoiler:




    Subtitles: PL (SSA/SRT) wmuxowane i ososbno
    Source A/V : BD

    Kompresja RAR + 10% Danych Naprawczych
    Brak Hasła
    Plki po 1,2Gb
    Pliki można pobierać na przemian
    Rapidu - FileShark :



    Linki / Download / Mirror / Pobierz:
    Linki widoczne tylko dla zarejestrowanych użytkowników.
    Jedne konto wiele hostingów - BEZ LIMITÓW! -FileFox-
    Ostatnio edytowane przez Demonxx ; 16-01-2016 o 23:59

Podobne wątki

  1. Szybcy i Wściekli / The Fast and the Furious (2001)
    Przez noe w dziale DVD/Blu-ray - Filmy
    Odpowiedzi: 9
    Ostatni post / autor: 27-12-2016, 22:00
  2. Szybcy i wściekli / The Fast and the Furious (2001)
    Przez 92michal92 w dziale AVI & DIVX
    Odpowiedzi: 5
    Ostatni post / autor: 25-02-2016, 00:28
  3. Szybcy i wściekli 6 / Fast And Furious 6 (2013)
    Przez newland w dziale AVI & DIVX
    Odpowiedzi: 44
    Ostatni post / autor: 17-09-2013, 11:32

Uprawnienia umieszczania postów

  • Nie możesz zakładać nowych tematów
  • Nie możesz pisać wiadomości
  • Nie możesz dodawać załączników
  • Nie możesz edytować swoich postów
  •  
Page Rank Check