Pokaż wyniki od 1 do 2 z 2

Wątek: Mumia Trylogia (1999 - 2008)

  
  1. #1
    Użytkownik Array
    Dołączył
    Jun 2015
    Posty
    736
    Podziękował/a
    0
    Otrzymał/a podziękowań 11
    Siła reputacji
    77

    Domyślnie Mumia Trylogia (1999 - 2008)

    Mumia Trylogia (1999 - 2008) PL.BluRay.m720p.x264.AC3-DX Lektor PL



    The Mummy / Mumia (1999) PL.BluRay.m720p.x264.AC3-DX

    PRODUKCJA: USA
    GATUNEK: Fantasy, Przygodowy
    CZAS TRWANIA: 125 minut
    DATA PREMIERY: 1999-07-30 (Polska) , 1999-04-16 (świat)
    REŻYSERIA: Stephen Sommers
    SCENARIUSZ: Stephen Sommers
    OBSADA: Brendan Fraser , Rachel Weisz , John Hannah , Arnold Vosloo



    OPIS: W głębi egipskiej pustyni grupa ludzi szukających bezcennego skarbu wyzwoli monstrum sprzed 3000 lat. "Mumia" to pełen napięcia, porywający film przygodowy z Brendanem Fraserem w roli głównej, nowa wersja legendarnego horroru z lat 30-tych, z niesamowitymi efektami specjalnymi, znakomitym aktorstwem i zapierającą dech w piersiach akcją.

    General
    Spoiler:
    Format : Matroska
    File size : 2.35 GiB
    Duration : 2h 4mn
    Overall bit rate : 2 693 Kbps
    Encoded date : UTC 2011-04-17 17:01:40
    Writing application : mkvmerge v2.9.8 ('C'est le bon') built on Aug 13 2009 12:49:06
    Writing library : libebml v0.7.7 + libmatroska v0.8.1
    Video #1
    ID : 1
    Format : AVC
    Format/Info : Advanced Video Codec
    Format profile : [email protected]
    Format settings, CABAC : Yes
    Format settings, ReFrames : 4 frames
    Muxing mode : Container [email protected]
    Codec ID : V_MPEG4/ISO/AVC
    Duration : 2h 4mn
    Bit rate : 2 255 Kbps
    Nominal bit rate : 2 322 Kbps
    Width : 1 280 pixels
    Height : 544 pixels
    Display aspect ratio : 2.35:1
    Frame rate : 23.976 fps
    Resolution : 24 bits
    Colorimetry : 4:2:0
    Scan type : Progressive
    Bits/(Pixel*Frame) : 0.135
    Stream size : 1.97 GiB (84%)
    Writing library : x264 core 112
    Language : English
    Audio #2
    ID : 2
    Format : AC-3
    Format/Info : Audio Coding 3
    Codec ID : A_AC3
    Duration : 2h 4mn
    Bit rate mode : Constant
    Bit rate : 384 Kbps
    Channel(s) : 6 channels
    Channel positions : Front: L C R, Surround: L R, LFE
    Sampling rate : 48.0 KHz
    Stream size : 343 MiB (14%)
    Title : Polish
    Language : Polish






    Mumia powraca / The Mummy Returns (2001) PL.BluRay.m720p.x264.AC3-DX

    PRODUKCJA: USA
    GATUNEK: Fantasy, Przygodowy
    CZAS TRWANIA: 130 minut
    DATA PREMIERY: 2001-06-22 (Polska) , 2001-04-29 (świat)
    REŻYSERIA: Stephen Sommers
    SCENARIUSZ: Stephen Sommers
    OBSADA: Brendan Fraser , Rachel Weisz , John Hannah , Arnold Vosloo


    OPIS: Producenci Mumii przedstawiają jeden z największych przebojów kinowych wypełniony akcją i efektami specjalnymi. Kiedy w Muzeum Brytyjskim przypadkowo odkryta zostaje mumia Imhotepa (Vosloo), faraon zmartwychwstaje i raz jeszcze próbuje osiągnąć nieśmiertelność. Ale z otchłani ciemnośći uwolniona została także bardziej potężna i niszczycielska siła. Kiedy te dwie moce spotkają się, losy świata zależeć będą od małże?stwa O'Connell, które ma uratować ludzkość od zagłady.

    General
    Spoiler:
    Format : Matroska
    File size : 2.32 GiB
    Duration : 2h 9mn
    Overall bit rate : 2 568 Kbps
    Encoded date : UTC 2011-04-17 16:49:41
    Writing application : mkvmerge v2.9.8 ('C'est le bon') built on Aug 13 2009 12:49:06
    Writing library : libebml v0.7.7 + libmatroska v0.8.1
    Video #1
    ID : 1
    Format : AVC
    Format/Info : Advanced Video Codec
    Format profile : [email protected]
    Format settings, CABAC : Yes
    Format settings, ReFrames : 4 frames
    Muxing mode : Container [email protected]
    Codec ID : V_MPEG4/ISO/AVC
    Duration : 2h 9mn
    Bit rate : 2 132 Kbps
    Nominal bit rate : 2 215 Kbps
    Width : 1 280 pixels
    Height : 544 pixels
    Display aspect ratio : 2.35:1
    Frame rate : 23.976 fps
    Resolution : 24 bits
    Colorimetry : 4:2:0
    Scan type : Progressive
    Bits/(Pixel*Frame) : 0.128
    Stream size : 1.93 GiB (83%)
    Writing library : x264 core 112
    Language : English
    Audio #2
    ID : 2
    Format : AC-3
    Format/Info : Audio Coding 3
    Codec ID : A_AC3
    Duration : 2h 9mn
    Bit rate mode : Constant
    Bit rate : 384 Kbps
    Channel(s) : 6 channels
    Channel positions : Front: L C R, Surround: L R, LFE
    Sampling rate : 48.0 KHz
    Video delay : 32ms
    Stream size : 356 MiB (15%)
    Title : Polish
    Language : Polish






    Mumia: Grobowiec Cesarza Smoka / The Mummy: Tomb of the Dragon Emperor (2008) PL.BluRay.m720p.x264.AC3-DX

    PRODUKCJA: Niemcy, USA
    GATUNEK: Fantasy, Przygodowy
    CZAS TRWANIA: 112 minut
    DATA PREMIERY: 2008-08-01 (Polska) , 2008-07-24 (świat)
    REŻYSERIA: Rob Cohen
    SCENARIUSZ: Miles Millar , Alfred Gough
    OBSADA: Brendan Fraser , Jet Li , John Hannah , Maria Bello


    OPIS: Alex odnajduje ukryty sarkofag bezwzględnego cesarza Hana. Rodzice znalazcy zostają podstępnie wysłani do Chin z magicznym przedmiotem, który budzi zaklętego cesarza. Han pragnie zdobyć władzę nad światem, by tego dokonać musi zdjąć klątwę z tysięcy swoich wojowników zaklętych w posągi przed dwoma tysiącami lat. Rick wraz z synem, żoną Evelyn, bratem Jonathanem i strażniczką Lin wyruszają za nim by mu przeszkodzić.

    General
    Spoiler:
    Format : Matroska
    File size : 2.34 GiB
    Duration : 1h 51mn
    Overall bit rate : 3 001 Kbps
    Encoded date : UTC 2011-04-17 17:33:54
    Writing application : mkvmerge v2.9.8 ('C'est le bon') built on Aug 13 2009 12:49:06
    Writing library : libebml v0.7.7 + libmatroska v0.8.1
    Video #1
    ID : 1
    Format : AVC
    Format/Info : Advanced Video Codec
    Format profile : [email protected]
    Format settings, CABAC : Yes
    Format settings, ReFrames : 4 frames
    Muxing mode : Container [email protected]
    Codec ID : V_MPEG4/ISO/AVC
    Duration : 1h 51mn
    Bit rate : 2 558 Kbps
    Nominal bit rate : 2 674 Kbps
    Width : 1 280 pixels
    Height : 528 pixels
    Display aspect ratio : 2.40:1
    Frame rate : 23.976 fps
    Resolution : 24 bits
    Colorimetry : 4:2:0
    Scan type : Progressive
    Bits/(Pixel*Frame) : 0.158
    Stream size : 1.99 GiB (85%)
    Writing library : x264 core 112
    Language : English
    Audio #2
    ID : 2
    Format : AC-3
    Format/Info : Audio Coding 3
    Codec ID : A_AC3
    Duration : 1h 51mn
    Bit rate mode : Constant
    Bit rate : 384 Kbps
    Channel(s) : 6 channels
    Channel positions : Front: L C R, Surround: L R, LFE
    Sampling rate : 48.0 KHz
    Stream size : 307 MiB (13%)
    Title : PL AC3
    Language : Polish





    The Mummy / Mumia (1999)

    Linki / Download / Mirror / Pobierz:
    Linki widoczne tylko dla zarejestrowanych użytkowników.
    Jedne konto wiele hostingów - BEZ LIMITÓW! -FileFox-

    Mumia powraca / The Mummy Returns (2001)

    Linki / Download / Mirror / Pobierz:
    Linki widoczne tylko dla zarejestrowanych użytkowników.
    Jedne konto wiele hostingów - BEZ LIMITÓW! -FileFox-

    Mumia: Grobowiec Cesarza Smoka / The Mummy: Tomb of the Dragon Emperor (2008)

    Linki / Download / Mirror / Pobierz:
    Linki widoczne tylko dla zarejestrowanych użytkowników.
    Jedne konto wiele hostingów - BEZ LIMITÓW! -FileFox-

  2. #2
    Użytkownik Array
    Dołączył
    Jun 2015
    Posty
    736
    Podziękował/a
    0
    Otrzymał/a podziękowań 11
    Siła reputacji
    77

    Domyślnie

    Mumia / The Mummy (1999 - 2008) Trylogia PL.1080p.Bluray.x264.AC3.5.1-DX / Lektor PL
    60 FPS


    Spoiler:



    The Mummy I - Mumia I (1999) PL.1080p.Bluray.x264.AC3.5.1-DX / Lektor PL 60 FPS

    The Mummy II Returns - Mumia II powraca (2001) PL.1080p.Bluray.x264.AC3.5.1-DX / Lektor PL 60 FPS

    The Mummy III Tomb of the Dragon Emperor - Mumia III Grobowiec Cesarza Smoka (2008) PL.1080p.Bluray.x264.AC3.5.1-DX / Lektor PL 60 FPS


    The Mummy I - Mumia I (1999)
    Spoiler:

    reżyseria: Stephen Sommers
    scenariusz: Stephen Sommers John L. Balderston
    gatunek: Fantasy Przygodowy
    produkcja: USA
    premiera: 30 lipca 1999 (Polska) 16 kwietnia 1999 (świat)

    Spoiler:



    Poszukiwacze skarbów uwalniają mumię kapłana Ozyrysa,
    który trzy tysiące lat wcześniej sprzeniewierzył się faraonowi.


    General
    Spoiler:
    File size : 7.58 GiB
    Duration : 2h 4mn
    Overall bit rate : 8 694 Kbps
    Video #1
    ID : 1
    Format : AVC
    Format/Info : Advanced Video Codec
    Format profile : [email protected]
    Codec ID : V_MPEG4/ISO/AVC
    Duration : 2h 4mn
    Bit rate : 8 137 Kbps
    Width : 1 920 pixels
    Height : 816 pixels
    Display aspect ratio : 2.35:1
    Frame rate : 59.940 fps
    Resolution : 24 bits
    Audio #2
    ID : 2
    Format : AC-3
    Format/Info : Audio Coding 3
    Codec ID : A_AC3
    Duration : 2h 4mn
    Bit rate mode : Constant
    Bit rate : 384 Kbps
    Channel(s) : 6 channels
    Channel positions : Front: L C R, Surround: L R, LFE
    Sampling rate : 48.0 KHz
    Stream size : 343 MiB (4%)
    Title : Polish
    Language : Polish









    Source A/V : BD

    Kompresja RAR + 10% Danych Naprawczych
    Brak Hasła
    Plki po 1,85Gb
    Pliki można pobierać na przemian

    Storbit - Rapidu - FileShark - LunaticFiles - CatShare:


    Linki / Download / Mirror / Pobierz:
    Linki widoczne tylko dla zarejestrowanych użytkowników.
    Jedne konto wiele hostingów - BEZ LIMITÓW! -FileFox-
    The Mummy II Returns - Mumia II powraca (2001)
    Spoiler:

    reżyseria: Stephen Sommers
    scenariusz: Stephen Sommers
    gatunek: Fantasy Przygodowy
    produkcja: USA
    premiera: 22 czerwca 2001 (Polska) 29 kwietnia 2001 (świat)



    Mumia ponownie ożywa i podejmuje walkę o władzę.
    Rodzina O'Connellów stara się powstrzymać potwora.


    General
    Spoiler:
    Format : Matroska
    File size : 7.99 GiB
    Duration : 2h 9mn
    Overall bit rate : 8 836 Kbps
    Video #1
    ID : 1
    Format : AVC
    Format/Info : Advanced Video Codec
    Format profile : [email protected]
    Codec ID : V_MPEG4/ISO/AVC
    Duration : 2h 9mn
    Bit rate : 8 276 Kbps
    Width : 1 920 pixels
    Height : 816 pixels
    Display aspect ratio : 2.35:1
    Frame rate : 59.940 fps
    Resolution : 24 bits
    Audio #2
    ID : 2
    Format : AC-3
    Format/Info : Audio Coding 3
    Codec ID : A_AC3
    Duration : 2h 9mn
    Bit rate mode : Constant
    Bit rate : 384 Kbps
    Channel(s) : 6 channels
    Channel positions : Front: L C R, Surround: L R, LFE
    Sampling rate : 48.0 KHz
    Video delay : 32ms
    Stream size : 356 MiB (4%)
    Title : Polish
    Language : Polish








    Source A/V : BD

    Kompresja RAR + 10% Danych Naprawczych
    Brak Hasła
    Plki po 1,85Gb
    Pliki można pobierać na przemian

    Storbit - Rapidu - FileShark - LunaticFiles - CatShare:


    Linki / Download / Mirror / Pobierz:
    Linki widoczne tylko dla zarejestrowanych użytkowników.
    Jedne konto wiele hostingów - BEZ LIMITÓW! -FileFox-
    The Mummy III Tomb of the Dragon Emperor - Mumia III Grobowiec Cesarza Smoka (2008)
    Spoiler:

    reżyseria: Rob Cohen
    scenariusz: Miles Millar Alfred Gough Stephen Sommers John L. Balderston
    gatunek: Fantasy Przygodowy
    produkcja: Chiny Niemcy USA
    premiera: 1 sierpnia 2008 (Polska) 24 lipca 2008 (świat)



    Na Dalekim Wschodzie rodzina O'Connellów próbuje powstrzymać wskrzeszonego
    cesarza Hana i jego armię terakotowych wojowników przed zawładnięciem światem.


    General
    Spoiler:
    Format : Matroska
    File size : 9.24 GiB
    Duration : 1h 51mn
    Overall bit rate : 11.8 Mbps
    Cover : Yes / Yes / Yes
    Video #1
    ID : 1
    Format : AVC
    Format/Info : Advanced Video Codec
    Format profile : [email protected]
    Codec ID : V_MPEG4/ISO/AVC
    Duration : 1h 51mn
    Bit rate : 11.2 Mbps
    Width : 1 920 pixels
    Height : 800 pixels
    Display aspect ratio : 2.40:1
    Frame rate : 59.940 fps
    Resolution : 24 bits
    Audio #2
    ID : 2
    Format : AC-3
    Format/Info : Audio Coding 3
    Codec ID : A_AC3
    Duration : 1h 51mn
    Bit rate mode : Constant
    Bit rate : 384 Kbps
    Channel(s) : 6 channels
    Channel positions : Front: L C R, Surround: L R, LFE
    Sampling rate : 48.0 KHz
    Stream size : 307 MiB (3%)
    Title : PL AC3
    Language : Polish








    Source A/V : BD

    Kompresja RAR + 10% Danych Naprawczych
    Brak Hasła
    Plki po 1,85Gb
    Pliki można pobierać na przemian

    Storbit - Rapidu - FileShark - LunaticFiles - CatShare:


    Linki / Download / Mirror / Pobierz:
    Linki widoczne tylko dla zarejestrowanych użytkowników.
    Jedne konto wiele hostingów - BEZ LIMITÓW! -FileFox-

Podobne wątki

  1. Odpowiedzi: 5
    Ostatni post / autor: 14-06-2018, 11:28
  2. Mumia: Grobowiec Cesarza Smoka (2008)
    Przez Almanz0r w dziale Kosz
    Odpowiedzi: 0
    Ostatni post / autor: 06-03-2011, 16:08
  3. Odpowiedzi: 0
    Ostatni post / autor: 20-01-2009, 10:52

Uprawnienia umieszczania postów

  • Nie możesz zakładać nowych tematów
  • Nie możesz pisać wiadomości
  • Nie możesz dodawać załączników
  • Nie możesz edytować swoich postów
  •  
Page Rank Check