Pokaż wyniki od 1 do 1 z 1

Wątek: Iron Man (2008 - 2013)

  
  1. #1
    Użytkownik Array
    Dołączył
    Jun 2015
    Posty
    736
    Podziękował/a
    0
    Otrzymał/a podziękowań 11
    Siła reputacji
    77

    Domyślnie Iron Man (2008 - 2013)

    Iron Man (2008 - 2013) PL.720p.Bluray.x264.AC3-DX / Lektor PL


    60 FPS





    gatunek: Akcja Sci-Fi


    Iron Man I (2008) PL.720p.Bluray.x264.AC3-DX / Lektor PL


    60 FPS


    reżyseria: Jon Favreau
    scenariusz: Hawk Ostby Mark Fergus Art Marcum Matthew Hollaway
    gatunek: Akcja Sci-Fi
    produkcja: USA
    premiera: 30 kwietnia 2008 (Polska) 14 kwietnia 2008 (świat)



    Tony Stark buduje supernowoczesną zbroję.
    Multimiliarder postanawia walczyć ze złem jako Iron Man.

    General
    Spoiler:
    Format : Matroska
    File size : 12.7 GiB
    Duration : 2h 6mn
    Overall bit rate : 14.4 Mbps
    Video #1
    ID : 1
    Format : AVC
    Format/Info : Advanced Video Codec
    Format profile : [email protected]
    Codec ID : V_MPEG4/ISO/AVC
    Duration : 2h 5mn
    Bit rate : 13.7 Mbps
    Nominal bit rate : 14.0 Mbps
    Width : 1 920 pixels
    Height : 800 pixels
    Display aspect ratio : 2.40:1
    Frame rate : 59.940 fps
    Resolution : 24 bits
    Audio #2
    ID : 2
    Format : AC-3
    Format/Info : Audio Coding 3
    Codec ID : A_AC3
    Duration : 2h 6mn
    Bit rate mode : Constant
    Bit rate : 448 Kbps
    Channel(s) : 6 channels
    Channel positions : Front: L C R, Surround: L R, LFE
    Sampling rate : 48.0 KHz
    Stream size : 404 MiB (3%)
    Title : Polish AC3 5.1 448 Kbps
    Language : Polish



    Source A/V : BD

    Kompresja RAR + 10% Danych Naprawczych
    Brak Hasła
    Plki po 1,5Gb
    Pliki można pobierać na przemian

    FileShark :


    Linki / Download / Mirror / Pobierz:
    Linki widoczne tylko dla zarejestrowanych użytkowników.
    Jedne konto wiele hostingów - BEZ LIMITÓW! -FileFox-
    Iron Man II (2010) PL.720p.Bluray.x264.AC3-DX / Lektor PL


    60 FPS


    reżyseria: Jon Favreau
    scenariusz: Justin Theroux
    gatunek: Akcja Sci-Fi
    produkcja: USA
    premiera: 30 kwietnia 2010 (Polska) 26 kwietnia 2010 (świat)


    Iron Man stawia czoło Iwanowi Wanko, znanemu jako Whiplash.

    General
    Spoiler:
    Format : Matroska
    File size : 12.6 GiB
    Duration : 2h 4mn
    Overall bit rate : 14.5 Mbps
    Video #1
    ID : 1
    Format : AVC
    Format/Info : Advanced Video Codec
    Format profile : [email protected]
    Codec ID : V_MPEG4/ISO/AVC
    Duration : 2h 4mn
    Bit rate : 13.8 Mbps
    Nominal bit rate : 14.1 Mbps
    Width : 1 920 pixels
    Height : 816 pixels
    Display aspect ratio : 2.35:1
    Frame rate : 59.940 fps
    Resolution : 24 bits
    Audio #2
    ID : 2
    Format : AC-3
    Format/Info : Audio Coding 3
    Codec ID : A_AC3
    Duration : 2h 4mn
    Bit rate mode : Constant
    Bit rate : 384 Kbps
    Channel(s) : 6 channels
    Channel positions : Front: L C R, Surround: L R, LFE
    Sampling rate : 48.0 KHz
    Video delay : 14s 0ms
    Stream size : 343 MiB (3%)
    Title : Polish AC3 5.1 348 Kbps
    Language : Polish



    Source A/V : BD

    Kompresja RAR + 10% Danych Naprawczych
    Brak Hasła
    Plki po 1,5Gb
    Pliki można pobierać na przemian

    FileShark :


    Linki / Download / Mirror / Pobierz:
    Linki widoczne tylko dla zarejestrowanych użytkowników.
    Jedne konto wiele hostingów - BEZ LIMITÓW! -FileFox-
    Iron Man III (2013) PL.720p.Bluray.x264.AC3-DX / Lektor PL

    60 FPS


    reżyseria: Shane Black
    scenariusz: Drew Pearce Shane Black
    gatunek: Akcja Sci-Fi
    produkcja: Chiny USA
    premiera: 9 maja 2013 (Polska) 18 kwietnia 2013 (świat)


    Tony Stark wyrusza w podróż, by zemścić się na tych,
    przez których jego świat legł w gruzach.

    General
    Spoiler:
    Format : Matroska
    File size : 13.2 GiB
    Duration : 2h 10mn
    Overall bit rate : 14.5 Mbps
    Video #1
    ID : 1
    Format : AVC
    Format/Info : Advanced Video Codec
    Format profile : [email protected]
    Codec ID : V_MPEG4/ISO/AVC
    Duration : 2h 10mn
    Bit rate : 13.7 Mbps
    Nominal bit rate : 14.0 Mbps
    Width : 1 920 pixels
    Height : 800 pixels
    Display aspect ratio : 2.40:1
    Frame rate : 59.940 fps
    Resolution : 24 bits
    Audio #2
    ID : 2
    Format : AC-3
    Format/Info : Audio Coding 3
    Codec ID : A_AC3
    Duration : 2h 10mn
    Bit rate mode : Constant
    Bit rate : 448 Kbps
    Channel(s) : 6 channels
    Channel positions : Front: L C R, Surround: L R, LFE
    Sampling rate : 48.0 KHz
    Stream size : 418 MiB (3%)
    Title : Polish AC3 5.1 448 Kbps
    Language : Polish



    Source A/V : BD

    Kompresja RAR + 10% Danych Naprawczych
    Brak Hasła
    Plki po 1,5Gb
    Pliki można pobierać na przemian

    FileShark :


    Linki / Download / Mirror / Pobierz:
    Linki widoczne tylko dla zarejestrowanych użytkowników.
    Jedne konto wiele hostingów - BEZ LIMITÓW! -FileFox-
    Ostatnio edytowane przez Demonxx ; 22-12-2015 o 11:49

Podobne wątki

  1. Iron Man (2008)
    Przez kimahripl w dziale AVI & DIVX
    Odpowiedzi: 10
    Ostatni post / autor: 01-11-2016, 10:04
  2. Iron Man (2008)
    Przez GhostRaider w dziale DVD/Blu-ray - Filmy
    Odpowiedzi: 4
    Ostatni post / autor: 28-09-2016, 04:37
  3. Iron Man (2008) DVDRIP
    Przez dyabl w dziale Kosz
    Odpowiedzi: 0
    Ostatni post / autor: 09-09-2008, 05:10
  4. Iron Man (2008) TS XViD-PreVail
    Przez Jaculek w dziale Kosz
    Odpowiedzi: 0
    Ostatni post / autor: 04-05-2008, 16:39

Uprawnienia umieszczania postów

  • Nie możesz zakładać nowych tematów
  • Nie możesz pisać wiadomości
  • Nie możesz dodawać załączników
  • Nie możesz edytować swoich postów
  •  
Page Rank Check