Pitch Perfect (2012) MULTI.1080p.BluRay.x264.DTS-DX / Lektor i Napisy PL



reżyseria: Jason Moore
scenariusz: Kay Cannon
gatunek: Komedia rom. Muzyczny
produkcja: USA
premiera: 28 września 2012 (świat)


Beca, studentka pierwszego roku na Barden University, dołącza do damskiego chóru szkolnego, The Bellas,
który startuje w zawodach a capella.

General
Spoiler:
Format : Matroska
File size : 11.4 GiB
Duration : 1h 52mn
Overall bit rate : 14.6 Mbps
Video #1
ID : 1
Format : AVC
Format/Info : Advanced Video Codec
Format profile : [email protected]
Codec ID : V_MPEG4/ISO/AVC
Duration : 1h 51mn
Bit rate : 12.1 Mbps
Nominal bit rate : 12.8 Mbps
Width : 1 920 pixels
Height : 1 040 pixels
Display aspect ratio : 16:9
Frame rate : 23.976 fps
Resolution : 24 bits
Audio #2
ID : 2
Format : DTS
Format/Info : Digital Theater Systems
Codec ID : A_DTS
Duration : 1h 52mn
Bit rate mode : Constant
Bit rate : 1 510 Kbps
Channel(s) : 6 channels
Channel positions : Front: L C R, Surround: L R, LFE
Sampling rate : 48.0 KHz
Resolution : 24 bits
Stream size : 1.18 GiB (10%)
Title : English DTS 5.1 1510 Kbps
Language : English
Audio #3
ID : 3
Format : DTS
Format/Info : Digital Theater Systems
Codec ID : A_DTS
Duration : 1h 52mn
Bit rate mode : Constant
Bit rate : 755 Kbps
Channel(s) : 6 channels
Channel positions : Front: L C R, Surround: L R, LFE
Sampling rate : 48.0 KHz
Resolution : 24 bits
Stream size : 604 MiB (5%)
Title : Polish DTS 5.1 755 Kbps
Language : Polish
Text #4
ID : 4
Format : SSA
Codec ID : S_TEXT/SSA
Codec ID/Info : Sub Station Alpha
Title : Polish SSA
Language : Polish
Text #5
ID : 5
Format : UTF-8
Codec ID : S_TEXT/UTF8
Codec ID/Info : UTF-8 Plain Text
Title : Polish SRT
Language : Polish


Spoiler:







Napisy PL Wmuxowane
Source A/V : BD

Kompresja RAR + 10% Danych Naprawczych
Brak Hasła
Plki po 1,7Gb
Pliki można pobierać na przemian

Rapidu - Storbit - FileShark :


Linki / Download / Mirror / Pobierz:
Linki widoczne tylko dla zarejestrowanych użytkowników.
Jedne konto wiele hostingów - BEZ LIMITÓW! -FileFox-

Pitch Perfect 2 (2015) MULTI.1080p.BluRay.x264.DTS-DX / Lektor i Napisy PL



reżyseria: Elizabeth Banks
scenariusz: Kay Cannon
gatunek: Komedia Muzyczny
produkcja: USA
premiera: 15 maja 2015 (Polska) 20 kwietnia 2015 (świat)


Zespół a cappella przystępuje do międzynarodowego konkursu, w którym nigdy nie zwyciężyła grupa z Ameryki.

General
Spoiler:
Format : Matroska
File size : 11.6 GiB
Duration : 1h 54mn
Overall bit rate : 14.5 Mbps
Video #1
ID : 1
Format : AVC
Format/Info : Advanced Video Codec
Format profile : [email protected]
Codec ID : V_MPEG4/ISO/AVC
Duration : 1h 54mn
Bit rate : 11.9 Mbps
Nominal bit rate : 12.3 Mbps
Width : 1 920 pixels
Height : 1 040 pixels
Display aspect ratio : 16:9
Frame rate : 23.976 fps
Resolution : 24 bits
Audio #2
ID : 2
Format : DTS
Format/Info : Digital Theater Systems
Codec ID : A_DTS
Duration : 1h 54mn
Bit rate mode : Constant
Bit rate : 1 510 Kbps
Channel(s) : 6 channels
Channel positions : Front: L C R, Surround: L R, LFE
Sampling rate : 48.0 KHz
Resolution : 24 bits
Stream size : 1.21 GiB (10%)
Title : English DTS 5.1 1510 Kbps
Language : English
Audio #3
ID : 3
Format : DTS
Format/Info : Digital Theater Systems
Codec ID : A_DTS
Duration : 1h 54mn
Bit rate mode : Constant
Bit rate : 755 Kbps
Channel(s) : 6 channels
Channel positions : Front: L C R, Surround: L R, LFE
Sampling rate : 48.0 KHz
Resolution : 24 bits
Stream size : 619 MiB (5%)
Title : Polish DTS 5.1 755 Kbps
Language : Polish
Text #4
ID : 4
Format : SSA
Codec ID : S_TEXT/SSA
Codec ID/Info : Sub Station Alpha
Title : Polish SSA
Language : Polish
Text #5
ID : 5
Format : UTF-8
Codec ID : S_TEXT/UTF8
Codec ID/Info : UTF-8 Plain Text
Title : Polish SRT
Language : Polish


Spoiler:






Napisy PL Wmuxowane
Source A/V : BD

Kompresja RAR + 10% Danych Naprawczych
Brak Hasła
Plki po 1,7Gb
Pliki można pobierać na przemian

Rapidu - Storbit - FileShark :


Linki / Download / Mirror / Pobierz:
Linki widoczne tylko dla zarejestrowanych użytkowników.
Jedne konto wiele hostingów - BEZ LIMITÓW! -FileFox-