Mission: Impossible (1996) 1080p.BluRay.x264.AC3-DX Lektor PL



reżyseria: Brian De Palma
scenariusz: Robert Towne David Koepp
gatunek: Sensacyjny
produkcja: USA
premiera: 31 grudnia 1996 (Polska) 22 maja 1996 (świat)


Niesłusznie oskarżony o zdradę agent IMF musi odkryć i zdemaskować prawdziwego szpiega.

General
Spoiler:

Format : Matroska
File size : 7.69 GiB
Duration : 1h 50mn
Video #1
ID : 1
Format : AVC
Format/Info : Advanced Video Codec
Format profile : [email protected]
Codec ID : V_MPEG4/ISO/AVC
Duration : 1h 50mn
Bit rate : 9 529 Kbps
Nominal bit rate : 9 835 Kbps
Width : 1 920 pixels
Height : 800 pixels
Display aspect ratio : 2.40:1
Frame rate : 23.976 fps
Audio #2
ID : 2
Format : AC-3
Format/Info : Audio Coding 3
Codec ID : A_AC3
Duration : 1h 50mn
Bit rate mode : Constant
Bit rate : 256 Kbps
Channel(s) : 2 channels
Channel positions : L R
Sampling rate : 48.0 KHz
Stream size : 202 MiB (3%)
Language : Polish




Source V/ A : BD


Kompresja RAR + 10% Danych Naprawczych
Brak Hasła
Plki po 2Gb
FileShark :[/b]

Linki / Download / Mirror / Pobierz:
Linki widoczne tylko dla zarejestrowanych użytkowników.
Jedne konto wiele hostingów - BEZ LIMITÓW! -FileFox-

Mission: Impossible II (2000) 1080p.BluRay.x264.AC3-DX Lektor PL
Spoiler:




reżyseria: John Woo
scenariusz: Robert Towne
gatunek: Sensacyjny
produkcja: Niemcy USA
premiera: 11 sierpnia 2000 (Polska) 24 maja 2000 (świat)


Były agent IMF, Sean Ambrose, wykrada wirusa. Ethan Hunt zostaje wysłany do Sydney, by go odzyskać

General
Spoiler:

Format : Matroska
File size : 7.76 GiB
Duration : 2h 3mn
Overall bit rate : 8 984 Kbps
Video #1
ID : 1
Format : AVC
Format/Info : Advanced Video Codec
Format profile : [email protected]
Codec ID : V_MPEG4/ISO/AVC
Duration : 2h 3mn
Bit rate : 8 549 Kbps
Nominal bit rate : 8 839 Kbps
Width : 1 920 pixels
Height : 800 pixels
Display aspect ratio : 2.40:1
Frame rate : 23.976 fps
Audio #2
ID : 2
Format : AC-3
Format/Info : Audio Coding 3
Codec ID : A_AC3
Duration : 2h 3mn
Bit rate mode : Constant
Bit rate : 256 Kbps
Channel(s) : 2 channels
Channel positions : L R
Sampling rate : 44.1 KHz
Stream size : 226 MiB (3%)




Source V/ A : BD


Kompresja RAR + 10% Danych Naprawczych
Brak Hasła
Plki po 2Gb
FileShark :[/b]

Linki / Download / Mirror / Pobierz:
Linki widoczne tylko dla zarejestrowanych użytkowników.
Jedne konto wiele hostingów - BEZ LIMITÓW! -FileFox-

Mission: Impossible III (2006) 1080p.BluRay.x264.AC3-DX Lektor PL
Spoiler:




reżyseria: J.J. Abrams
scenariusz: J.J. Abrams Alex Kurtzman Roberto Orci
gatunek: Sensacyjny
produkcja: Chiny Niemcy USA
premiera: 5 maja 2006 (Polska) 24 kwietnia 2006 (świat)


Ethan Hunt powraca, aby pokrzyżować plany bezwzględnego handlarza bronią, Owena Daviana.

General
Spoiler:

Format : Matroska
File size : 7.80 GiB
Duration : 2h 5mn
Overall bit rate : 8 901 Kbps
Video #1
ID : 1
Format : AVC
Format/Info : Advanced Video Codec
Format profile : [email protected]
Codec ID : V_MPEG4/ISO/AVC
Duration : 2h 5mn
Bit rate : 8 404 Kbps
Nominal bit rate : 8 705 Kbps
Width : 1 920 pixels
Height : 820 pixels
Display aspect ratio : 2.35:1
Frame rate : 23.976 fps
Audio #2
ID : 2
Format : AC-3
Format/Info : Audio Coding 3
Codec ID : A_AC3
Duration : 2h 5mn
Bit rate mode : Constant
Bit rate : 320 Kbps
Channel(s) : 2 channels
Channel positions : L R
Sampling rate : 48.0 KHz
Stream size : 287 MiB (4%)
Language : Polish




Source V/ A : BD


Kompresja RAR + 10% Danych Naprawczych
Brak Hasła
Plki po 2Gb
FileShark :[/b]

Linki / Download / Mirror / Pobierz:
Linki widoczne tylko dla zarejestrowanych użytkowników.
Jedne konto wiele hostingów - BEZ LIMITÓW! -FileFox-


Mission: Impossible (1996) 1080p.BluRay.x264.AC3-DX Lektor PL
Spoiler:




reżyseria: Brian De Palma
scenariusz: Robert Towne David Koepp
gatunek: Sensacyjny
produkcja: USA
premiera: 31 grudnia 1996 (Polska) 22 maja 1996 (świat)


Niesłusznie oskarżony o zdradę agent IMF musi odkryć i zdemaskować prawdziwego szpiega.

General
Spoiler:

Format : Matroska
File size : 7.69 GiB
Duration : 1h 50mn
Video #1
ID : 1
Format : AVC
Format/Info : Advanced Video Codec
Format profile : [email protected]
Codec ID : V_MPEG4/ISO/AVC
Duration : 1h 50mn
Bit rate : 9 529 Kbps
Nominal bit rate : 9 835 Kbps
Width : 1 920 pixels
Height : 800 pixels
Display aspect ratio : 2.40:1
Frame rate : 23.976 fps
Audio #2
ID : 2
Format : AC-3
Format/Info : Audio Coding 3
Codec ID : A_AC3
Duration : 1h 50mn
Bit rate mode : Constant
Bit rate : 256 Kbps
Channel(s) : 2 channels
Channel positions : L R
Sampling rate : 48.0 KHz
Stream size : 202 MiB (3%)
Language : Polish




Source V/ A : BD


Kompresja RAR + 10% Danych Naprawczych
Brak Hasła
Plki po 2Gb
FileShark :[/b]

Linki / Download / Mirror / Pobierz:
Linki widoczne tylko dla zarejestrowanych użytkowników.
Jedne konto wiele hostingów - BEZ LIMITÓW! -FileFox-

Mission Impossible V Rogue Nation (2015) 1080p.BluRay.x264.AC3-DX Lektor PL
Spoiler:




reżyseria: Christopher McQuarrie
scenariusz: Christopher McQuarrie
gatunek: Sensacyjny
produkcja: USA
premiera: 7 sierpnia 2015 (Polska) 23 lipca 2015 (świat)


Agent IMF Ethan Hunt wraz ze swoim ludźmi mierzy się z organizacją Syndykat.

General
Spoiler:

Format : Matroska
File size : 11.6 GiB
Duration : 2h 11mn
Overall bit rate : 12.6 Mbps
Video #1
ID : 1
Format : AVC
Format profile : [email protected]
Codec ID : V_MPEG4/ISO/AVC
Duration : 2h 11mn
Bit rate : 12.0 Mbps
Nominal bit rate : 12.7 Mbps
Width : 1 920 pixels
Height : 800 pixels
Display aspect ratio : 2.40:1
Frame rate : 23.976 fps
Audio #2
ID : 2
Format : AC-3
Format/Info : Audio Coding 3
Codec ID : A_AC3
Duration : 2h 11mn
Bit rate mode : Constant
Bit rate : 384 Kbps
Channel(s) : 6 channels
Channel positions : Front: L C R, Surround: L R, LFE
Sampling rate : 48.0 KHz
Stream size : 361 MiB (3%)
Language : Polish




Source V/ A : BD


Kompresja RAR + 10% Danych Naprawczych
Brak Hasła
Plki po 2Gb
FileShark :[/b]

Linki / Download / Mirror / Pobierz:
Linki widoczne tylko dla zarejestrowanych użytkowników.
Jedne konto wiele hostingów - BEZ LIMITÓW! -FileFox-